搜索
查看: 2526|回复: 27
收起左侧

[求助] 特定HEVC/H265视频无法通过PotPlayer硬解

[复制链接]
microka
发表于 2020-6-22 00:50:05 | 显示全部楼层 |阅读模式
Sample: https://wwe.lanzous.com/i3R3fdwvq2j

MediaInfo
  1. Format                                   : MPEG-TS
  2. File size                                : 21.8 MiB
  3. Duration                                 : 9 s 760 ms
  4. Overall bit rate mode                    : Variable
  5. Overall bit rate                         : 18.6 Mb/s
  6. Maximum Overall bit rate                 : 35.5 Mb/s

  7. Video
  8. ID                                       : 4113 (0x1011)
  9. Menu ID                                  : 1 (0x1)
  10. Format                                   : HEVC
  11. Format/Info                              : High Efficiency Video Coding
  12. Format profile                           : Main 10@L5@High
  13. Codec ID                                 : 6
  14. Duration                                 : 9 s 820 ms
  15. Bit rate                                 : 17.3 Mb/s
  16. Width                                    : 3 840 pixels
  17. Height                                   : 2 160 pixels
  18. Display aspect ratio                     : 16:9
  19. Frame rate                               : 50.000 FPS
  20. Standard                                 : Component
  21. Color space                              : YUV
  22. Chroma subsampling                       : 4:2:0 (Type 0)
  23. Bit depth                                : 8 bits
  24. Bits/(Pixel*Frame)                       : 0.042
  25. Stream size                              : 20.2 MiB (93%)
  26. Color range                              : Limited
  27. Color primaries                          : BT.2020
  28. Transfer characteristics                 : HLG
  29. Matrix coefficients                      : BT.2020 non-constant

  30. Audio
  31. ID                                       : 6656 (0x1A00)
  32. Menu ID                                  : 1 (0x1)
  33. Format                                   : AC-3
  34. Format/Info                              : Audio Coding 3
  35. Commercial name                          : Dolby Digital
  36. Codec ID                                 : 129
  37. Duration                                 : 9 s 760 ms
  38. Bit rate mode                            : Constant
  39. Bit rate                                 : 448 kb/s
  40. Channel(s)                               : 6 channels
  41. Channel layout                           : L R C LFE Ls Rs
  42. Sampling rate                            : 48.0 kHz
  43. Frame rate                               : 31.250 FPS (1536 SPF)
  44. Compression mode                         : Lossy
  45. Stream size                              : 534 KiB (2%)
  46. Service kind                             : Complete Main
复制代码


使用最新版PotPlayer 1.7.21239 Public(64位),打开视频约10s后提示如下:
微信截图_20200622003510.png

如果参照闻雷兄给出的方案,视频是能够软解播放了,但此时只有25fps的输出,效果很不理想。


我使用的是AMD 3400G核显,理应能顺利硬解这“HEVC (H.265), Main/10 Profile, Level 5.0, 3840x2160, 50.000 fps”的视频,用 PowerDVD 19.0.2403.62 则能顺利播放,而且是50fps流畅输出。

DXVA Checker检测如下:
微信截图_20200621223827.png

请问有什么办法能让PotPlayer对这个视频正常硬解吗?
每天看美剧
发表于 2020-6-22 04:48:26 | 显示全部楼层
最新正式版菜单有BUG,估计你这也是BUG,用上上一版试试,不要用上一版(BUG更严重),是用上上一版。
山城子
发表于 2020-6-22 09:59:26 | 显示全部楼层
我是装K-Lite_Codec_Pack解决的。也可以考虑换MPC播放。
RoyalFlare
发表于 2020-6-22 10:22:52 | 显示全部楼层
山城子 发表于 2020-6-22 09:59
我是装K-Lite_Codec_Pack解决的。也可以考虑换MPC播放。

嗯 我也推荐K-Lite Codec Pack Update+其它播放器解决 MPC-BE/MPC-HC不会出现这个问题
还是编码器选择上需要多留意一下.
名字无所谓
发表于 2020-6-22 12:15:58 | 显示全部楼层
老问题了,解码h265是硬伤
RoyalFlare
发表于 2020-6-22 12:53:06 | 显示全部楼层
@minifish PotPlayer 硬解H.265一直有问题?
microka
 楼主| 发表于 2020-6-22 21:21:16 | 显示全部楼层
每天看美剧 发表于 2020-6-22 04:48
最新正式版菜单有BUG,估计你这也是BUG,用上上一版试试,不要用上一版(BUG更严重),是用上上一版。

https://www.videohelp.com/software/PotPlayer/old-versions
方便告知一下是哪个版本吗?
microka
 楼主| 发表于 2020-6-22 21:22:32 | 显示全部楼层
山城子 发表于 2020-6-22 09:59
我是装K-Lite_Codec_Pack解决的。也可以考虑换MPC播放。

但舍不得PotPlayer用起来很称手
JnZkMM
发表于 2020-6-22 22:09:01 | 显示全部楼层
本帖最后由 JnZkMM 于 2020-6-22 22:10 编辑


建议分别试试POT自带的dxva(native)/dxva(copy-back)/D3D11三种硬解模式+EVR CP,可能有一种可以
另外,这片子我在1066上用LAV也只能用2个dxva来硬解,然后还是显示有问题的,换个片吧  研究这个没意义  MediaInfo看了下profile是Main 10@L5@High,一般要硬解都用Main

每天看美剧
发表于 2020-6-22 23:34:01 | 显示全部楼层
microka 发表于 2020-6-22 21:21
https://www.videohelp.com/software/PotPlayer/old-versions
方便告知一下是哪个版本吗?

PotPlayer-1.7.21149-x64(20200323)
试试这版看看行不行
您需要登录后才可以回帖 登录 | 快速注册

本版积分规则

手机版|杀毒软件|软件论坛| 卡饭论坛

Copyright © KaFan  KaFan.cn All Rights Reserved.

Powered by Discuz! X3.4( 晋ICP备20004298号-1 ) GMT+8, 2020-8-12 17:42 , Processed in 0.136684 second(s), 19 queries .

卡饭网所发布的一切软件、样本、工具、文章等仅限用于学习和研究,不得将上述内容用于商业或者其他非法用途,否则产生的一切后果自负,本站信息来自网络,版权争议问题与本站无关,您必须在下载后的24小时之内从您的电脑中彻底删除上述信息,如有问题请通过邮件与我们联系。

快速回复 客服 返回顶部 返回列表